Kagikko ronry case 2 ~Mii-chan emagensii!~ (Kateisaien / kate sai) (ep. 1 of 1) [cen] [2021, small breast, virgin, oral, creampie, GameRip] [jap] [720p]

Kagikko ronry case 2 ~Mii-chan emagensii!~ (Kateisaien / kate sai) (ep. 1 of 1) [cen] [2021, small breast, virgin, oral, creampie, GameRip] [jap] [720p]


Kagikko ronry case 2 ~Mii-chan emagensii!~
かぎっコ ろんりぃ Case.2 ~みぃちゃん・えまーじぇんしぃ!~


Год выпуска: 2021
Жанр: small breast, virgin, oral, creampie
Серии: ep. 1 of 1
Продолжительность: 2h 8mn
Цензура: Есть во всех файлах

Озвучка: Японская оригинальная
Субтитры: Японские встроенные неотключаемые (хардсаб)

Студия: Kateisaien / kate_sai

Описание: A runaway girl, Mii-chan, who has rolled into the new housing complex, and Naisho live together! Full voice, hand-drawn video "Ronri" animation presented with a total length of about 130 minutes and about 1800 videos! Mii-chan, a girl who has run away from home due to family circumstances in a "big pinch of an emergency". She is a good girl who is honest and cheerful because she has the strength to do anything by herself and her cuteness. Under her smile, a "lonely heart" can be seen and hidden. I have to protect such a good girl! ...... She started living with her age difference with enthusiasm without any ulterior motive. Being obsessed with cute Mii-chan and being actively pressed, I m in a big pinch in many ways !? The heart and body melt and melt together, creating a love-love chubby relationship !! Is this [love] or ... [love]?

CV: Ryo Ryo

* "Kagikko Ronry Case.2" is the same stage as the previous work "Kagikko Ronry", but it is made so that you can enjoy it only with this work.



Качество видео: GAMErip
Разрешение видео: 720p
Формат видео: MP4
Видео: 1000-750, 4-3, 24 fps, AVC, 4006 kbps
Аудио: jpn, AAC, Stereo, 48.0 KHz, 255 kbps
"Скринлист"
General
Unique ID : 134509736147505024810223851872147327712 (0x6531A2037E6755D7D8E4D189CC0DCAE0)
Complete name : Kagikko ronry case 2 ~Mii-chan emagensii!~ [GAMErip][RJ326824][895FD961].mkv
Format : Matroska
Format version : Version 4
File size : 3.82 GiB
Duration : 2 h 8 min
Overall bit rate : 4 264 kb/s
Encoded date : UTC 2021-06-18 20:26:33
Writing application : mkvmerge v58.0.0 ( Supper s Ready ) 64-bit
Writing library : libebml v1.4.2 + libmatroska v1.6.4

Video
ID : 1
Format : AVC
Format/Info : Advanced Video Codec
Format profile : Main@L4.1
Format settings : CABAC / 4 Ref Frames
Format settings, CABAC : Yes
Format settings, Reference frames : 4 frames
Format settings, GOP : M=4, N=24
Codec ID : V_MPEG4/ISO/AVC
Duration : 2 h 8 min
Bit rate : 4 006 kb/s
Width : 1 000 pixels
Height : 750 pixels
Display aspect ratio : 4:3
Frame rate mode : Constant
Frame rate : 24.000 FPS
Color space : YUV
Chroma subsampling : 4:2:0
Bit depth : 8 bits
Scan type : Progressive
Bits/(Pixel*Frame) : 0.223
Stream size : 3.59 GiB (94%)
Language : Japanese
Default : Yes
Forced : No
Color range : Limited
Color primaries : BT.709
Transfer characteristics : BT.709
Matrix coefficients : BT.709

Audio
ID : 2
Format : AAC LC
Format/Info : Advanced Audio Codec Low Complexity
Codec ID : A_AAC-2
Duration : 2 h 8 min
Bit rate : 255 kb/s
Channel(s) : 2 channels
Channel layout : L R
Sampling rate : 48.0 kHz
Frame rate : 46.875 FPS (1024 SPF)
Compression mode : Lossy
Stream size : 234 MiB (6%)
Language : Japanese
Default : Yes
Forced : No

Menu
00:00:00.000 : :Глава 01 / :Глава 01
00:04:00.000 : :Глава 02
00:10:42.000 : :Глава 03
00:15:09.000 : :Глава 04
00:23:59.000 : :Глава 05
00:31:35.000 : :Глава 06
00:32:15.000 : :Глава 07
00:39:45.000 : :Глава 08
00:41:21.000 : :Глава 09
00:41:39.000 : :Глава 10
00:47:21.000 : :Глава 11
00:49:21.000 : :Глава 12
00:53:51.000 : :Глава 13
00:55:09.000 : :Глава 14
01:01:09.000 : :Глава 15
01:06:27.000 : :Глава 16
01:08:12.000 : :Глава 17
01:13:12.000 : :Глава 18
01:16:30.000 : :Глава 19
01:17:06.000 : :Глава 20
01:22:48.000 : :Глава 21
01:27:54.000 : :Глава 22
01:29:30.000 : :Глава 23
01:34:24.000 : :Глава 24
01:37:36.000 : :Глава 25
01:42:12.000 : :Глава 26
01:45:00.000 : :Глава 27
01:53:36.000 : :Глава 28
02:00:06.000 : :Глава 29
02:03:33.000 : :Глава 30


Скриншот №1 для Kagikko ronry case 2 ~Mii-chan emagensii!~ (Kateisaien / kate sai) (ep. 1 of 1) [cen] [2021, small breast, virgin, oral, creampie, GameRip] [jap] [720p]  


Size: 3.82 GB
Сидов: Пиров: Скачано: раз Добавлено: 19-06-2021, 09:54 Пользователь: